Welcome, Guest. Please login or register.
April 16, 2014, 12:26:56 PM
Home Help Search Calendar Login Register
Show unread posts since last visit.
News: Let Pardus-Anka become #1: Pardus-Anka Bug ReportPardus-Anka World Google+ | The Pardus wiki  | Visit Pardus-Anka official website  | Register as forum member?  Email the moderator!

  Show Posts
Pages: 1 2 [3] 4
31  Assistance / Installing Pardus / Re: internet - pardus2008 full on: June 28, 2008, 13:55:31 PM
I does it Kaptan and with Tasma...

Willy
32  Assistance / Installing Pardus / internet - pardus2008 full on: June 28, 2008, 13:36:22 PM
Hello,

My wireless internet does't work under Pardus 2008(full) under 2007.3 it works good!
I have a USB networkcard Ralink?
Is this a bug ?

Greetings
Willy
33  Assistance / Installing Pardus / 2008RC2,2007.3,Windows on: June 25, 2008, 13:56:59 PM
I had on my PC Windows XP and Pardus 2007.3.Everything goes very well.
I have made a new partition and I installed 2008RC2.
Now I can not start Pardus 2007.3,Grub give only the Win partition and the new partition of 2008RC2 !

What can I do ?

Willy
34  Assistance / Pardus for beginners / Re: Don't start on: June 19, 2008, 08:17:00 AM
HelLo Andreas and PhiX,

I will try it this eveving,if it not works I wait for Pardus 2008 for a new installation.

Thank you both

Greetings

Willy
35  Assistance / Pardus for beginners / Re: Don't start on: June 19, 2008, 07:46:04 AM
I have deleted the files in /tmp not the directory .

Greetings

Willy
36  Assistance / Pardus for beginners / Re: Don't start on: June 18, 2008, 20:58:01 PM
Andreas,

I think I have deleted all the files in /tmp.

Greetings

Willy
37  Assistance / Pardus for beginners / Don't start on: June 18, 2008, 19:03:53 PM
Hallo,
Today when I start my PC(Pardus 2007.3) I receive the following message:
The following installation problem was detected while trying to start KDE
    Writing to temp directory(/tmp) failed with the error 'Permission denied'
    KDE is unable to start


When I push OK  then I recieve : Could not start ksmserver.Check your installation

What can I do ?

Willy
38  Assistance / Pardus for beginners / Epson DX4400 on: February 27, 2008, 09:36:25 AM
Have anybody experience with Epson DX4400 under Pardus ?
Printing will be no problem but scanning ??

Greetings

Willy
39  Assistance / Pardus for beginners / Re: internet explorer on: February 20, 2008, 18:28:29 PM
That's possible ,I do that with Crossover from CodeWeavers(maybe is it also possible with Wine,but I haven't try that)You have also a add-on "IEtab" for Firefox but I think it only works under Windows!

Willy
40  Assistance / Pardus for beginners / composite manager on: February 04, 2008, 10:06:54 AM
Since yesterday when I start my PC I recieve the next message "composite manager faalt"(faling??)
Can somebody help me ?
Thanks

Willy
41  Assistance / Hardware / Re: other motherboard on: January 14, 2008, 19:26:33 PM
I used for trying a very old vga card ,it's a Cirrus Logic 5446 and that shell be the problem ,I'm go try a other!
Thank you for the help

Willy
42  Assistance / Hardware / Re: other motherboard on: January 14, 2008, 17:11:40 PM
I recieve the same message with the Live CD
43  Assistance / Hardware / other motherboard on: January 14, 2008, 16:31:12 PM
I've put another motherboard in my PC ,a ASRockK7S8X with processor Athlon XP +2000.
Linux doesn't start anymore.
The error is :
vesafd:sorry pre-VBE 2.0 cards are not supported
vesafd:vbe_init failed

Can somebody help me ?

Willy
44  Assistance / Software / Re: Mpeg4 -> Avi on: December 21, 2007, 12:11:50 PM
Mconverter (multimedia converter via pisibul) is a very nice program,easy to use and it handle all formats.

Willy
45  Assistance / Software / Re: Mpeg4 -> Avi on: December 18, 2007, 18:29:29 PM
Thanks for your answer,but it doesn't work .I've got the following message :

willy@pardus ~ $ ffmpeg -i xxxxx.mp4 -acodec mp3 -vcodec avi -s 320×240 -r 24 xxxxx.avi
FFmpeg version SVN-r9116, Copyright (c) 2000-2007 Fabrice Bellard, et al.
Compiled with gcc 3.4.6
Input #0, mov,mp4,m4a,3gp,3g2,mj2, from 'xxxxx.mp4':
  Duration: 01:46:04.2, start: 0.000000, bitrate: 1836 kb/s
  Stream #0.0(eng): Data: mp4s / 0x7334706D
  Stream #0.1(eng): Data: mp4s / 0x7334706D
  Stream #0.2(eng): Video: mpeg4, yuv420p, 720x432, 25.00 fps(r)
  Stream #0.3(dut): Audio: aac, 44100 Hz, stereo
Unknown codec 'avi'

Have I done something wrong ?
Willy
Pages: 1 2 [3] 4


Powered by MySQL Powered by PHP Powered by SMF 1.1.19 | SMF © 2013, Simple Machines Valid XHTML 1.0! Valid CSS!