Welcome, Guest. Please login or register.
April 17, 2014, 00:00:05 AM
Home Help Search Calendar Login Register
Show unread posts since last visit.
News: Let Pardus-Anka become #1: Pardus-Anka Bug ReportPardus-Anka World Google+ | The Pardus wiki  | Visit Pardus-Anka official website  | Register as forum member?  Email the moderator!

+  Pardus Worldforum
|-+  Assistance
| |-+  Software
| | |-+  Mpeg4 -> Avi
0 Members and 1 Guest are viewing this topic. « previous next »
Pages: [1] Go Down Print
Author Topic: Mpeg4 -> Avi  (Read 1403 times)
willy
Pardus fellow craft
**
Gender: Male
Posts: 99



View Profile WWW
« on: December 18, 2007, 11:31:53 AM »

Hallo,

I'm looking for a program to convert Mpeg4 to Avi.
Can somebody help me ?

Thanks

Willy
Logged
Eren.Turkay
Global Moderator
Pardus Master
*****
Posts: 262



View Profile WWW
« Reply #1 on: December 18, 2007, 12:22:51 PM »

You can use ffmpeg for this; the command looks like this;

ffmpeg -i input.mpeg4 -acodec mp3 -vcodec avi -s 320×240 -r 24 output.avi

http://www.ibiblio.org/joey/videolinux/mp4-for-web-distribution-via-ffmpeg/
Logged
willy
Pardus fellow craft
**
Gender: Male
Posts: 99



View Profile WWW
« Reply #2 on: December 18, 2007, 18:29:29 PM »

Thanks for your answer,but it doesn't work .I've got the following message :

willy@pardus ~ $ ffmpeg -i xxxxx.mp4 -acodec mp3 -vcodec avi -s 320×240 -r 24 xxxxx.avi
FFmpeg version SVN-r9116, Copyright (c) 2000-2007 Fabrice Bellard, et al.
Compiled with gcc 3.4.6
Input #0, mov,mp4,m4a,3gp,3g2,mj2, from 'xxxxx.mp4':
  Duration: 01:46:04.2, start: 0.000000, bitrate: 1836 kb/s
  Stream #0.0(eng): Data: mp4s / 0x7334706D
  Stream #0.1(eng): Data: mp4s / 0x7334706D
  Stream #0.2(eng): Video: mpeg4, yuv420p, 720x432, 25.00 fps(r)
  Stream #0.3(dut): Audio: aac, 44100 Hz, stereo
Unknown codec 'avi'

Have I done something wrong ?
Willy
Logged
Michiel
Administrator
Pardus Guru
*****
Posts: 799



View Profile
« Reply #3 on: December 21, 2007, 11:11:02 AM »

Meanwhile multimedia converter (mconverter) as hinted in the dutch forum apparently did the job for Willy.

http://paketler.pardus.org.tr/contrib/source/mconverter.html
« Last Edit: December 21, 2007, 11:12:41 AM by medman » Logged

Former Pardus user, now on OpenSUSE 12.2 (KDE)
Eren.Turkay
Global Moderator
Pardus Master
*****
Posts: 262



View Profile WWW
« Reply #4 on: December 21, 2007, 12:03:45 PM »

Great Smiley
Logged
willy
Pardus fellow craft
**
Gender: Male
Posts: 99



View Profile WWW
« Reply #5 on: December 21, 2007, 12:11:50 PM »

Mconverter (multimedia converter via pisibul) is a very nice program,easy to use and it handle all formats.

Willy
Logged
Eren.Turkay
Global Moderator
Pardus Master
*****
Posts: 262



View Profile WWW
« Reply #6 on: December 21, 2007, 12:18:11 PM »

You don't have to deal with "pisibul". You should compile the package when using pisibul. Just add contrib repository as binary, use package-manager and double-click to install Wink

http://paketler.pardus.org.tr/contrib-2007/pisi-index.xml.bz2
Logged
Pages: [1] Go Up Print 
« previous next »
Jump to:  


Powered by MySQL Powered by PHP Powered by SMF 1.1.19 | SMF © 2013, Simple Machines Valid XHTML 1.0! Valid CSS!